Домашний медиа-сервер (UPnP, DLNA, HTTP) Домашний медиа-сервер (UPnP, DLNA, HTTP) Домашний медиа-сервер (UPnP, DLNA, HTTP)
Главная Решения пользователей программы "Домашний медиа-сервер (UPnP, DLNA, HTTP)"
 
Текущее время: Пт дек 02, 2022 1:37 pm

Часовой пояс: UTC+03:00




Начать новую тему  Ответить на тему  [ 27 сообщений ]  На страницу Пред. 1 2 3 След.
Автор Сообщение
 Заголовок сообщения: Re: Проблемы с DLINK-DSM 520
СообщениеДобавлено: Вс ноя 16, 2008 7:50 pm 
Не в сети

Зарегистрирован: Вт сен 16, 2008 7:30 pm
Сообщения: 2802
roverhmm писал(а):

Где взять обновление я нашел, но у меня не все удачно. Есть подозрение, что неправильная ассоциация. У меня скаченный файл распознается как файл правил и при запуске говорит ошибка в линии 0.


В группе программ Home Media Server есть ярлык "Обслуживание ...", запустите - Обновить - укажите файл обновления


Вернуться к началу
 Заголовок сообщения: Re: Проблемы с DLINK-DSM 520
СообщениеДобавлено: Вс ноя 16, 2008 8:27 pm 
Обновление до 1.02.4 установлено. Установки mime работают и изменены. DSM полностью воспринял поток с «Домашнего медиа-центра». :D

Начинаю тестировать функциональность, связанную с управлением видео файлом (перемотка, позиционирование и т.д.) и работу с другими типами файлов (музыка, фото). О результатах напишу. ;)


Вернуться к началу
   
 Заголовок сообщения: Re: Проблемы с DLINK-DSM 520
СообщениеДобавлено: Пн ноя 17, 2008 10:08 am 
Не в сети

Зарегистрирован: Вт сен 16, 2008 7:30 pm
Сообщения: 2802
roverhmm писал(а):
Обновление до 1.02.4 установлено. Установки mime работают и изменены. DSM полностью воспринял поток с «Домашнего медиа-центра». :D

Начинаю тестировать функциональность, связанную с управлением видео файлом (перемотка, позиционирование и т.д.) и работу с другими типами файлов (музыка, фото). О результатах напишу. ;)


Ok, спасибо за сообщение :)


Вернуться к началу
 Заголовок сообщения: Re: Проблемы с DLINK-DSM 520
СообщениеДобавлено: Ср ноя 19, 2008 11:48 pm 
Добрый вечер!
Итак, погонял версию 1.02.4 и перед переходом на 1.02.7 сообщаю зафиксированные факты.

Среда тестирования:
• Компьютер Intel Core2 Quad CPU Q6600 2.4GHz RAM 4 Gb LAN 1Gb.
• D-Link DSM-520 прошивка 1.04.11 LAN 100Mb
• Два D-Link DSN-323 с включенными UPnP серверами
• ADSL роутер.
В качестве эталонного устройства на ПК установлен Nero Show Time 4.3.2.0 (Nero) умеющий считывать фильмы и с UPnP серверов и с диска.

Режим позиционирования и перемотка.
DSM-520 может работать в двух режимах: ускоренная перемотка и позиционирование по времени. В режиме перемотка работает с двукратным ускорением, на четырехкратном дергается и тормозит, но восьмикратном срывается (аналогичный опыт Nero дает те же результаты). В режиме позиционирования в состояние позиционировать не более чем на 2-3 минуты от текущей позиции; при большем времени теряется связь между HMS и DSM.

Демонстрация фильма.
При проигрывании фильма длительностью 2:32:50 проигрывание остановилось на позиции ~1час 28минут. Аналогичный опыт с Nero дал тот же результат. При этом место на диске не закончилось, ограничение на размер папки с временными файлами достигнуто не был. Созданный при этом временный файл содержал весь фильм целиком.
При проигрывание того же фильма (Audio: DTS 48000Hz 6ch [Output], Video: MPEG4 Video (H264) 1920x800 23.98fps [Video], Audio: Dolby AC3 48000Hz 6ch [Audio]) и параметрах транскодирования Video 6000000 бит/сек, 384 000 бит/сек, 1280*720 на DSM периодически возникает торможение. Воспроизведение того же фильма с теме же параметрами транскодирования на Nero показывает что периодически поток превышает установленное в транскодирование значение и может доходить до 11 Mb/sec. Визуально это совпадает с моментами торможения на DSM. Опытным путем было выявлено, что при установке параметра транскодирования более 8,5 Mb/sec DSM начинает тормозить.

Окно транскодирования. В версии 1.02.4 не открывается.

Перехожу на версию 1.02.7.
;)


Вернуться к началу
   
 Заголовок сообщения: Re: Проблемы с DLINK-DSM 520
СообщениеДобавлено: Чт ноя 20, 2008 12:15 am 
roverhmm писал(а):
При проигрывании фильма длительностью 2:32:50 проигрывание остановилось на позиции ~1час 28минут.


тоже наткнулся на такое начиная с какой-то из последней тестовой версии, помогло увеличение максимального размера транскодирования


Вернуться к началу
   
 Заголовок сообщения: Re: Проблемы с DLINK-DSM 520
СообщениеДобавлено: Чт ноя 20, 2008 12:24 am 
aWasik писал(а):
тоже наткнулся на такое начиная с какой-то из последней тестовой версии, помогло увеличение максимального размера транскодирования


Да, я тоже после обновления отредактировал этот параметр и сейчас тестирую…


Вернуться к началу
   
 Заголовок сообщения: Re: Проблемы с DLINK-DSM 520
СообщениеДобавлено: Вт дек 23, 2008 1:30 am 
Доброго времени суток!
После, вынужденного перерыва вернулся к тестированию HMS (1.02.29). Здорово, что появилось так много нового и интересного. Но вернемся к результату прогонов:

1. Прогон DVD в виде VIDEO_TS.
При запуске на устройство отказалось работать со ссылкой неподдерживаемый формат. При тестовом декодирование и последующем воспроизведение файла без декодирования работает нормально, но получается очень странный размер изображения. Видимо мешают боковые линии.

D:\Program Files\Home Media Server>"D:\Program Files\Home Media Server\hmsmpeg.e
xe" -i "E:\Video\DVD (VIDEO_TS)\LE_GRAND_BLEU\VIDEO_TS\VTS_01_1.VOB" -f dvd -vco
dec mpeg2video -b 6000000 -aspect 16:9 -copyts -pix_fmt yuv420p -acodec ac3 -ab
256000 -ar 48000 -ac 2 -padleft 100 -padright 100 -padtop 0 -padbottom 0 -padcol
or 000000 -s 1080x720 -threads 2 "D:\TMP.HMS\32cd5e3ce97ff846b82927241c6288d8.mp
g"
FFmpeg version SVN-r12665, Copyright (c) 2000-2008 Fabrice Bellard, et al.
configuration: --enable-gpl --enable-postproc --enable-swscale --enable-memali
gn-hack --cpu=i686 --enable-libmp3lame --enable-liba52 --enable-libfaac --enable
-libfaad --disable-demuxer=vfwcap --enable-avisynth --target-os=mingw32 --enable
-shared --enable-vhook --enable-w32threads
libavutil version: 49.6.0
libavcodec version: 51.54.0
libavformat version: 52.13.0
libavdevice version: 52.0.0
built on Nov 29 2008 15:47:08, gcc: 4.2.4 [Sherpya]
Input #0, mpeg, from 'E:\Video\DVD (VIDEO_TS)\LE_GRAND_BLEU\VIDEO_TS\VTS_01_1.VO
B':
Duration: 00:24:17.3, start: 0.280633, bitrate: 5892 kb/s
Stream #0.0[0x1e0]: Video: mpeg2video, yuv420p, 720x480 [PAR 32:27 DAR 16:9]
, 9800 kb/s, 29.97 tb(r)
Stream #0.1[0x80]: Audio: liba52, 48000 Hz, stereo, 192 kb/s
Stream #0.2[0x89]: Audio: dca, 48000 Hz, 5:1, 768 kb/s
Stream #0.3[0x82]: Audio: liba52, 48000 Hz, 5:1, 448 kb/s
Output #0, dvd, to 'D:\TMP.HMS\32cd5e3ce97ff846b82927241c6288d8.mpg':
Stream #0.0: Video: mpeg2video, yuv420p, 1280x720 [PAR 1:1 DAR 16:9], q=2-31
, 6000 kb/s, 29.97 tb(c)
Stream #0.1: Audio: ac3, 48000 Hz, stereo, 256 kb/s
Stream mapping:
Stream #0.0 -> #0.0
Stream #0.1 -> #0.1
No accelerated IMDCT transform found
Press [q] to stop encoding
frame= 1499 fps= 93 q=3.8 size= 39058kB time=49.9 bitrate=6413.6kbits/s


2. Прогон потока с BD.
При запуске на устройство отказалось работать со ссылкой неподдерживаемый формат. При тестовом декодирование и последующем воспроизведение файла без декодирования работает, но изображение идет с видимыми рывками.

D:\Program Files\Home Media Server>"D:\Program Files\Home Media Server\hmsmpeg.e
xe" -i "E:\Video\BRV\Phantom of Opera\BDMV\STREAM\00000.m2ts" -f dvd -vcodec mpe
g2video -b 6000000 -aspect 16:9 -copyts -pix_fmt yuv420p -acodec ac3 -ab 256000
-ar 48000 -ac 2 -s 1280x720 -threads 2 "D:\TMP.HMS\eb7d09f05f183b4c4b25d72239ba7
aa2.mpg"
FFmpeg version SVN-r12665, Copyright (c) 2000-2008 Fabrice Bellard, et al.
configuration: --enable-gpl --enable-postproc --enable-swscale --enable-memali
gn-hack --cpu=i686 --enable-libmp3lame --enable-liba52 --enable-libfaac --enable
-libfaad --disable-demuxer=vfwcap --enable-avisynth --target-os=mingw32 --enable
-shared --enable-vhook --enable-w32threads
libavutil version: 49.6.0
libavcodec version: 51.54.0
libavformat version: 52.13.0
libavdevice version: 52.0.0
built on Nov 29 2008 15:47:08, gcc: 4.2.4 [Sherpya]
Input #0, mpegts, from 'E:\Video\BRV\Phantom of Opera\BDMV\STREAM\00000.m2ts':
Duration: N/A, start: 600.000000, bitrate: N/A
Program 1
Stream #0.0[0x1011]: Video: h264, yuv420p, 1920x1080 [PAR 1:1 DAR 16:9], 23.
98 tb(r)
Stream #0.1[0x1100]: Audio: dca, 48000 Hz, 5:1, 1536 kb/s
File 'D:\TMP.HMS\eb7d09f05f183b4c4b25d72239ba7aa2.mpg' already exists. Overwrite
? [y/N] y
Output #0, dvd, to 'D:\TMP.HMS\eb7d09f05f183b4c4b25d72239ba7aa2.mpg':
Stream #0.0: Video: mpeg2video, yuv420p, 1280x720 [PAR 1:1 DAR 16:9], q=2-31
, 6000 kb/s, 23.98 tb(c)
Stream #0.1: Audio: ac3, 48000 Hz, stereo, 256 kb/s
Stream mapping:
Stream #0.0 -> #0.0
Stream #0.1 -> #0.1
Press [q] to stop encoding
frame= 3483 fps= 18 q=3.2 size= 112816kB time=144.6 bitrate=6391.0kbits/s


3. Прогон MKV c уменьшением размера кадра.
При запуске на устройство работает с незначительным торможением. При тестовом декодирование и последующем воспроизведение файла без декодирования работает без видимых претензий.

D:\Program Files\Home Media Server>"D:\Program Files\Home Media Server\hmsmpeg.e
xe" -i "E:\Video\HDV\The Chronicles of Narnia Prince Caspian_1080p.mkv" -f dvd -
vcodec mpeg2video -b 6000000 -aspect 16:9 -copyts -pix_fmt yuv420p -acodec ac3 -
ab 256000 -ar 48000 -ac 2 -padleft 0 -padright 0 -padtop 94 -padbottom 94 -padco
lor 000000 -s 1280x532 -threads 2 "D:\TMP.HMS\a91c3afe5470450aaa30c42c83c90bf8.m
pg"
FFmpeg version SVN-r12665, Copyright (c) 2000-2008 Fabrice Bellard, et al.
configuration: --enable-gpl --enable-postproc --enable-swscale --enable-memali
gn-hack --cpu=i686 --enable-libmp3lame --enable-liba52 --enable-libfaac --enable
-libfaad --disable-demuxer=vfwcap --enable-avisynth --target-os=mingw32 --enable
-shared --enable-vhook --enable-w32threads
libavutil version: 49.6.0
libavcodec version: 51.54.0
libavformat version: 52.13.0
libavdevice version: 52.0.0
built on Nov 29 2008 15:47:08, gcc: 4.2.4 [Sherpya]
[matroska @ 6EA36DB0]Ignoring seekhead entry for ID=0x1549a966
[matroska @ 6EA36DB0]Ignoring seekhead entry for ID=0x1654ae6b
[matroska @ 6EA36DB0]Ignoring seekhead entry for ID=0x114d9b74
[matroska @ 6EA36DB0]Unknown entry 0x73a4 in info header
[matroska @ 6EA36DB0]Unknown track header entry 0x55aa - ignoring
[matroska @ 6EA36DB0]Unknown track header entry 0x23314f - ignoring
[matroska @ 6EA36DB0]Unknown track header entry 0x55ee - ignoring
[matroska @ 6EA36DB0]Unknown track header entry 0xaa - ignoring
[matroska @ 6EA36DB0]Unknown track header entry 0x55aa - ignoring
[matroska @ 6EA36DB0]Unknown track header entry 0x23314f - ignoring
[matroska @ 6EA36DB0]Unknown track header entry 0x55ee - ignoring
[matroska @ 6EA36DB0]Unknown track header entry 0xaa - ignoring
[matroska @ 6EA36DB0]Unknown track header entry 0x55aa - ignoring
[matroska @ 6EA36DB0]Unknown track header entry 0x23314f - ignoring
[matroska @ 6EA36DB0]Unknown track header entry 0x55ee - ignoring
[matroska @ 6EA36DB0]Unknown track header entry 0xaa - ignoring
[matroska @ 6EA36DB0]Unknown track header entry 0x55aa - ignoring
[matroska @ 6EA36DB0]Unknown track header entry 0x23314f - ignoring
[matroska @ 6EA36DB0]Unknown track header entry 0x55ee - ignoring
[matroska @ 6EA36DB0]Unknown track header entry 0xaa - ignoring
[matroska @ 6EA36DB0]Unknown track header entry 0x55aa - ignoring
[matroska @ 6EA36DB0]Unknown track header entry 0x23314f - ignoring
[matroska @ 6EA36DB0]Unknown track header entry 0x55ee - ignoring
[matroska @ 6EA36DB0]Unknown track header entry 0xaa - ignoring
[matroska @ 6EA36DB0]Unknown track header entry 0x55aa - ignoring
[matroska @ 6EA36DB0]Unknown track header entry 0x23314f - ignoring
[matroska @ 6EA36DB0]Unknown track header entry 0x55ee - ignoring
[matroska @ 6EA36DB0]Unknown track header entry 0xaa - ignoring
[matroska @ 6EA36DB0]Unknown track header entry 0x55aa - ignoring
[matroska @ 6EA36DB0]Unknown track header entry 0x23314f - ignoring
[matroska @ 6EA36DB0]Unknown track header entry 0x55ee - ignoring
[matroska @ 6EA36DB0]Unknown track header entry 0xaa - ignoring
Input #0, matroska, from 'E:\Video\HDV\The Chronicles of Narnia Prince Caspian_1
080p.mkv':
Duration: 02:29:58.7, start: 0.000000, bitrate: N/A
Stream #0.0(eng): Video: h264, yuv420p, 1920x800 [PAR 1:1 DAR 12:5], 23.98 t
b(r)
Stream #0.1(rus): Audio: liba52, 48000 Hz, 5:1
Stream #0.2(eng): Audio: dca, 48000 Hz, 5:1
Stream #0.3: Audio: vorbis, 48000 Hz, stereo
Stream #0.4(rus): Subtitle: 0x0000
Stream #0.5(rus): Subtitle: 0x0000
Stream #0.6(eng): Subtitle: 0x0000
Output #0, dvd, to 'D:\TMP.HMS\a91c3afe5470450aaa30c42c83c90bf8.mpg':
Stream #0.0(eng): Video: mpeg2video, yuv420p, 1280x720 [PAR 1:1 DAR 16:9], q
=2-31, 6000 kb/s, 23.98 tb(c)
Stream #0.1(rus): Audio: ac3, 48000 Hz, stereo, 256 kb/s
Stream mapping:
Stream #0.0 -> #0.0
Stream #0.1 -> #0.1
No accelerated IMDCT transform found
Press [q] to stop encoding
frame= 812 fps= 29 q=2.0 size= 24750kB time=33.8 bitrate=5994.1kbits/s


Создается впечатление, что кодек теряет в скорости при необходимости уменьшение размера кадра. При этом процессор загружен не более чем на 35-40% (пики), нагрузка на дисковую подсистему незначительна. Готов перебросить получившиеся в результате тестового кодирования файлы и если нужно ссылки на источники. Каким образом это удобней всего сделать?


Вернуться к началу
   
 Заголовок сообщения: Re: Проблемы с DLINK-DSM 520
СообщениеДобавлено: Вт дек 23, 2008 10:42 am 
Не в сети

Зарегистрирован: Вт сен 16, 2008 7:30 pm
Сообщения: 2802
roverhmm писал(а):
1. Прогон DVD в виде VIDEO_TS.
При запуске на устройство отказалось работать со ссылкой неподдерживаемый формат. При тестовом декодирование и последующем воспроизведение файла без декодирования работает нормально, но получается очень странный размер изображения. Видимо мешают боковые линии.

2. Прогон потока с BD.
При запуске на устройство отказалось работать со ссылкой неподдерживаемый формат. При тестовом декодирование и последующем воспроизведение файла без декодирования работает, но изображение идет с видимыми рывками.

3. Прогон MKV c уменьшением размера кадра.
При запуске на устройство работает с незначительным торможением. При тестовом декодирование и последующем воспроизведение файла без декодирования работает без видимых претензий.

Создается впечатление, что кодек теряет в скорости при необходимости уменьшение размера кадра. При этом процессор загружен не более чем на 35-40% (пики), нагрузка на дисковую подсистему незначительна. Готов перебросить получившиеся в результате тестового кодирования файлы и если нужно ссылки на источники. Каким образом это удобней всего сделать?


Какой установлен размер кадра и режим изменения оригинального размера кадра ?
Используются ли индивидуальные настройки клиентского устройства ?


Вернуться к началу
 Заголовок сообщения: Re: Проблемы с DLINK-DSM 520
СообщениеДобавлено: Пт дек 26, 2008 1:02 am 
Доброй ночи!
Итак по порядку:
1. 1280*720. Перекодировать всегда. 16:9. В рамке все 0 и стоят галки.
2. Я не совсем понял второй вопрос, но специально настроек я не проводил не на HMS не на D-Link.


Вернуться к началу
   
 Заголовок сообщения: Re: Проблемы с DLINK-DSM 520
СообщениеДобавлено: Пт дек 26, 2008 12:11 pm 
Не в сети

Зарегистрирован: Вт сен 16, 2008 7:30 pm
Сообщения: 2802
roverhmm писал(а):
1. Прогон DVD в виде VIDEO_TS.
При запуске на устройство отказалось работать со ссылкой неподдерживаемый формат. При тестовом декодирование и последующем воспроизведение файла без декодирования работает нормально, но получается очень странный размер изображения. Видимо мешают боковые линии.



Необходимо обновить программу до последней тестовой версии 1.02.30, добавлен учет параметра PAR при чтении свойств размера кадра, заново прочитать свойства фильма. После сообщения повторный запуск фильма не пробовали ?

roverhmm писал(а):

2. Прогон потока с BD.
При запуске на устройство отказалось работать со ссылкой неподдерживаемый формат. При тестовом декодирование и последующем воспроизведение файла без декодирования работает, но изображение идет с видимыми рывками.



Недостаточный fps, он должен быть больше частоты кадров фильма.

roverhmm писал(а):
3. Прогон MKV c уменьшением размера кадра.
При запуске на устройство работает с незначительным торможением. При тестовом декодирование и последующем воспроизведение файла без декодирования работает без видимых претензий.



По всем пунктам какое используется соединение LAN, WiFi ? фильмы на локальном диске ?

roverhmm писал(а):
2. Я не совсем понял второй вопрос, но специально настроек я не проводил не на HMS не на D-Link.


В настройке на странице сервер можно задать индивидуальные настройки клиентского устройства, если в домашней сети их несколько. Если одно, то необходимости нет, и даже вредно :) (в плане путаницы пользователя)


Вернуться к началу
Показать сообщения за:  Поле сортировки  
Начать новую тему  Ответить на тему  [ 27 сообщений ]  На страницу Пред. 1 2 3 След.

Часовой пояс: UTC+03:00


Кто сейчас на конференции

Сейчас этот форум просматривают: нет зарегистрированных пользователей и 6 гостей


Вы не можете начинать темы
Вы не можете отвечать на сообщения
Вы не можете редактировать свои сообщения
Вы не можете удалять свои сообщения
Вы не можете добавлять вложения

Найти:
Перейти:  
cron
Создано на основе phpBB® Forum Software © phpBB Limited
Русская поддержка phpBB