Домашний медиа-сервер (UPnP, DLNA, HTTP) Домашний медиа-сервер (UPnP, DLNA, HTTP) Домашний медиа-сервер (UPnP, DLNA, HTTP)
Главная Решения пользователей программы "Домашний медиа-сервер (UPnP, DLNA, HTTP)"
 
Текущее время: Пн дек 10, 2018 4:02 am

Часовой пояс: UTC+03:00




Начать новую тему  Ответить на тему  [ 92 сообщения ]  На страницу Пред. 16 7 8 9 10 След.
Автор Сообщение
СообщениеДобавлено: Вт янв 19, 2010 11:33 pm 
Eugene писал(а):
saschka.net писал(а):
Eugene писал(а):
saschka.net писал(а):
Здравствуте Евгений,
на компьютере идет нормально, при попытке воспроизведения файла нет звука http://dl.torrents.ru/forum/dl.php?t=2646749

Что показывается при тестовом транскодировании ? транскодированный файл пробовали проиграть на компьютере ?


Тестовый .mpg проигрывается на компютере со звуком.

Какой звук в Тестовый .mpg ? Может выключить/включить телевизор, но не с пульта.


Добрый вечер,
тестовый файл даёт хороший звук на компютере. Пробовал телевизор с кнопки включить, не помогает.
Разобрался, звука нет только тогда, когда качаеш DVDScreener медиаресурс. Забыл сказать, что клиент уменя PS3.

Возможна дальнейшая помощь? Спасибо


Вернуться к началу
   
СообщениеДобавлено: Ср янв 20, 2010 10:06 am 
Не в сети

Зарегистрирован: Вт сен 16, 2008 7:30 pm
Сообщения: 2744
saschka.net писал(а):
Eugene писал(а):
saschka.net писал(а):
Eugene писал(а):
saschka.net писал(а):
Здравствуте Евгений,
на компьютере идет нормально, при попытке воспроизведения файла нет звука http://dl.torrents.ru/forum/dl.php?t=2646749

Что показывается при тестовом транскодировании ? транскодированный файл пробовали проиграть на компьютере ?


Тестовый .mpg проигрывается на компютере со звуком.

Какой звук в Тестовый .mpg ? Может выключить/включить телевизор, но не с пульта.


тестовый файл даёт хороший звук на компютере. Пробовал телевизор с кнопки включить, не помогает.
Разобрался, звука нет только тогда, когда качаеш DVDScreener медиаресурс. Забыл сказать, что клиент уменя PS3.

Возможна дальнейшая помощь?

PS3 поддерживает проигрывание AVI, проблема без транскодирования ? Через папку Транскодирование пробовали смотреть ?

P.S. Загрузил этот файл. Без транскодирования звука нет. С транскодированием проблем нет.


Вернуться к началу
СообщениеДобавлено: Чт янв 21, 2010 1:41 am 
Добрый вечер и Огромное спасибо за помощь!
Запустил через папку Транскодирование появился звук и тормозов изображения почти не стало.
Спасибо у удачи вам!


Вернуться к началу
   
 Заголовок сообщения: Lost, 6ой сезон, 2ая серия
СообщениеДобавлено: Вс фев 07, 2010 2:25 pm 
http://torrents.ru/forum/viewtopic.php?t=2716794
Во второй серии ошибка - non monotone timestamps
Первая серия из той же раздачи идет.
Там рядышком где-то есть раздача нулевой серии - с той же проблемой. Если надо - ссылку пришлю.

Спасибо!

Георгий


Вернуться к началу
   
 Заголовок сообщения: Re: Lost, 6ой сезон, 2ая серия
СообщениеДобавлено: Вс фев 07, 2010 3:01 pm 
Не в сети

Зарегистрирован: Вт сен 16, 2008 7:30 pm
Сообщения: 2744
Georgi-47 писал(а):
http://torrents.ru/forum/viewtopic.php?t=2716794
Во второй серии ошибка - non monotone timestamps
Первая серия из той же раздачи идет.
Там рядышком где-то есть раздача нулевой серии - с той же проблемой. Если надо - ссылку пришлю.

Спасибо!

Георгий

Настройки-Транскодер-"Кодеки,кадр" - выключите копирование оригинальной дорожки, если включено.


Вернуться к началу
 Заголовок сообщения: Re: Lost, 6ой сезон, 2ая серия
СообщениеДобавлено: Вт фев 09, 2010 11:26 pm 
Eugene писал(а):
Georgi-47 писал(а):
http://torrents.ru/forum/viewtopic.php?t=2716794
Во второй серии ошибка - non monotone timestamps
Первая серия из той же раздачи идет.
Там рядышком где-то есть раздача нулевой серии - с той же проблемой. Если надо - ссылку пришлю.

Спасибо!

Георгий

Настройки-Транскодер-"Кодеки,кадр" - выключите копирование оригинальной дорожки, если включено.


Помогло! Спасибо!


Вернуться к началу
   
СообщениеДобавлено: Пт мар 12, 2010 9:20 pm 
Фильм "Супруги Морган в бегах"
Пробовал и в BDRip 720p http://rutracker.org/forum/viewtopic.php?t=2795931 и в HDRip http://rutracker.org/forum/viewtopic.php?t=2798328.
В обоих случаях звук отстает от видео.

Версия программы 1.11 от 04.03.2010
Телевизор Philips 9704

Тестовое транскодирование:
Код:
C:\Program Files\Home Media Server>"C:\Program Files\Home Media Server\hmsmpeg.e
xe" -i "\\GATE\homes\Suprugi.Morgan.v.begah.2009.720p.BDRip.mkv" -f dvd -vcodec
mpeg2video -b 10000000  -aspect 16:9 -copyts -pix_fmt yuv420p -padleft 0 -padrig
ht 0 -padtop 132 -padbottom 132 -padcolor 303030 -s 1920x816 -vhook "hmssubt.dll
 indicator,Verdana,54,1,16777215,0,5,1677729792,1920,1080,35,4,32" -threads 4 -a
codec ac3 -ab 448000 -ar 48000 -ac 2 -map 0:0 -map 0:1 "C:\Users\sergey\AppData\
Local\Home Media Server\HMS\Temp\Test_3aacb9113b112672ea02e502ddc4cb7e.mpg" -v 1

FFmpeg version SVN-r20212, Copyright (c) 2000-2009 Fabrice Bellard, et al.
  built on Dec 19 2009 00:45:55 with gcc 4.2.4 [Sherpya]
  libavutil     50. 3. 0 / 50. 3. 0
  libavcodec    52.37. 0 / 52.37. 0
  libavformat   52.39. 0 / 52.39. 0
  libavdevice   52. 2. 0 / 52. 2. 0
  libswscale     0. 7. 1 /  0. 7. 1
  libpostproc   51. 2. 0 / 51. 2. 0
[matroska @ 0x38bc80]max_analyze_duration reached

Seems stream 0 codec frame rate differs from container frame rate: 47.95 (27956/
583) -> 23.98 (24000/1001)
Input #0, matroska, from '\\GATE\homes\Suprugi.Morgan.v.begah.2009.720p.BDRip.mk
v':
  Duration: 01:43:28.12, start: 0.000000, bitrate: N/A
    Stream #0.0(eng): Video: h264, yuv420p, 1280x544, PAR 1:1 DAR 40:17, 23.98 t
br, 1k tbn, 47.95 tbc
    Stream #0.1(rus): Audio: ac3, 48000 Hz, 6 channels, s16
    Stream #0.2(eng): Audio: dca, 48000 Hz, 6 channels, s16
    Stream #0.3(eng): Subtitle: 0x0000
File 'C:\Users\sergey\AppData\Local\Home Media Server\HMS\Temp\Test_3aacb9113b11
2672ea02e502ddc4cb7e.mpg' already exists. Overwrite ? [y/N] y
[ac3 @ 0x1a33400]No channel layout specified. The encoder will guess the layout,
 but it might be incorrect.
Output #0, dvd, to 'C:\Users\sergey\AppData\Local\Home Media Server\HMS\Temp\Tes
t_3aacb9113b112672ea02e502ddc4cb7e.mpg':
    Stream #0.0(eng): Video: mpeg2video, yuv420p, 1920x1080 [PAR 1:1 DAR 16:9],
q=2-31, 10000 kb/s, 90k tbn, 23.98 tbc
    Stream #0.1(rus): Audio: ac3, 48000 Hz, stereo, s16, 448 kb/s
Stream mapping:
  Stream #0.0 -> #0.0
  Stream #0.1 -> #0.1
Press [q] to stop encoding
frame=  749 fps= 48 q=2.0 size=   15990kB time=29.38 bitrate=4459.1kbits/s


Вернуться к началу
   
СообщениеДобавлено: Вт мар 16, 2010 4:13 pm 
Обновился до 1.11, ничего не изменилось.
Сделал тестовое транскодирование, в полученном файле так же видео отстает от звука. Вроде бы около пары секунд и от времени не зависит (и в начале фильма и в конце).
Думал, может дело в установленных кодеках или еще в чем. Поставил в виртуалку win xp sp2, в нее только HMS. Результат тот же.
С этим можно что-то сделать?


Вернуться к началу
   
СообщениеДобавлено: Пт мар 19, 2010 10:14 pm 
Похоже я тут тихо сам с собой...
Вообщем я тут провел эксперимент.
Код:
mencoder -oac copy -ovc xvid -xvidencopts bitrate=1600 -aid 0 -o morgans.avi /home/sergey/torrent/Suprugi.Morgan.v.begah.2009.720p.BDRip.mkv

После этого подсунул этот .avi HMS. Он траснкодируется нормально, со звуком все в порядке.
Я думаю mencoder умеет и напрямую в mpeg2, чтоб через xvid не перегонять, но я пока не разобрался.

Как мне кажется, налицо проблема транскодера. Что-то еще из .mkv тоже шло с отставанием звука, видимо те же кодеки.
Было бы неплохо получить какой-нибудь комментарий от автора, поскольку с обработкой видео я раньше не сталкивался. Насколько я понимаю, HMS может использовать стронние транскодеры (тот же mencoder, он вроде и под win есть)?


Вернуться к началу
   
СообщениеДобавлено: Сб мар 20, 2010 2:27 am 
http://rutracker.org/forum/viewtopic.php?t=947296
упорно показывает картинку 16:9 вместо 4:3.
с другими файлами 4:3 все ок. версия 1.10 и 1.11


Вернуться к началу
   
Показать сообщения за:  Поле сортировки  
Начать новую тему  Ответить на тему  [ 92 сообщения ]  На страницу Пред. 16 7 8 9 10 След.

Часовой пояс: UTC+03:00


Кто сейчас на конференции

Сейчас этот форум просматривают: нет зарегистрированных пользователей и 19 гостей


Вы не можете начинать темы
Вы не можете отвечать на сообщения
Вы не можете редактировать свои сообщения
Вы не можете удалять свои сообщения
Вы не можете добавлять вложения

Найти:
Перейти:  
Создано на основе phpBB® Forum Software © phpBB Limited
Русская поддержка phpBB