Домашний медиа-сервер (UPnP, DLNA, HTTP) Домашний медиа-сервер (UPnP, DLNA, HTTP) Домашний медиа-сервер (UPnP, DLNA, HTTP)
Главная Решения пользователей программы "Домашний медиа-сервер (UPnP, DLNA, HTTP)"
 
Текущее время: Пн дек 10, 2018 3:56 am

Часовой пояс: UTC+03:00




Начать новую тему  Ответить на тему  [ 92 сообщения ]  На страницу Пред. 16 7 8 9 10 След.
Автор Сообщение
СообщениеДобавлено: Вс янв 03, 2010 7:15 pm 
Не в сети

Зарегистрирован: Вт сен 16, 2008 7:30 pm
Сообщения: 2744
igorky писал(а):
Вот как показывает

В папке "Все фильмы" так и должно быть. Если речь об объединении, то это в каталогах медиа-ресурсов.


Вернуться к началу
СообщениеДобавлено: Пт янв 08, 2010 12:14 pm 
скажите пожалуйста а что нужно сделать чтобы этот фильм программа могла распознать (не отображается в списке фильмы) http://kinozal.tv/details.php?id=488200


Вернуться к началу
   
СообщениеДобавлено: Пт янв 08, 2010 12:26 pm 
Не в сети

Зарегистрирован: Вт сен 16, 2008 7:30 pm
Сообщения: 2744
Nikolas писал(а):
скажите пожалуйста а что нужно сделать чтобы этот фильм программа могла распознать (не отображается в списке фильмы) http://kinozal.tv/details.php?id=488200

Может отображается, но ищете по названию файла, а не по заголовку, который есть в файле. Какое расширение файла ?


Вернуться к началу
СообщениеДобавлено: Пт янв 08, 2010 2:30 pm 
расширение как показал Media Player Classic ( Video: FMP4 1920x1080 23.98fps [Video]
Audio: Dolby AC3 48000Hz 6ch [Audio])


Вернуться к началу
   
СообщениеДобавлено: Вс янв 10, 2010 12:02 am 
Eugene писал(а):
Nikolas писал(а):
скажите пожалуйста а что нужно сделать чтобы этот фильм программа могла распознать (не отображается в списке фильмы) http://kinozal.tv/details.php?id=488200

Может отображается, но ищете по названию файла, а не по заголовку, который есть в файле. Какое расширение файла ?


Спасибо вроде разобрался просто переименовал файл в .mkv :D


Вернуться к началу
   
СообщениеДобавлено: Вс янв 17, 2010 4:01 pm 
http://torrents.ru/forum/viewtopic.php?t=2297378
На компьютере идет нормально, при попытке воспроизведения файла 00010.m2ts (основной файл фильма) выдается надпись: "Файл недоступен для чтения или не найден".

В сообщении о транскодировании выдает следующее:
FFmpeg version SVN-r20212, Copyright (c) 2000-2009 Fabrice Bellard, et al.
built on Dec 19 2009 00:45:55 with gcc 4.2.4 [Sherpya]
libavutil 50. 3. 0 / 50. 3. 0
libavcodec 52.37. 0 / 52.37. 0
libavformat 52.39. 0 / 52.39. 0
libavdevice 52. 2. 0 / 52. 2. 0
libswscale 0. 7. 1 / 0. 7. 1
libpostproc 51. 2. 0 / 51. 2. 0
[mpegts @ 0x36e710]max_analyze_duration reached

Seems stream 0 codec frame rate differs from container frame rate: 47.95 (48000/1001) -> 23.98 (24000/1001)

Seems stream 12 codec frame rate differs from container frame rate: 47.95 (48000/1001) -> 23.98 (24000/1001)
Input #0, mpegts, from 'E:\TORRENT\ЗАКАЧКА\VanHelsing.BluRay\BDMV\STREAM\00010.m2ts':
Duration: 02:11:37.98, start: 599.958311, bitrate: 38186 kb/s
Program 1
Stream #0.0[0x1011]: Video: h264, yuv420p, 1920x1080 [PAR 1:1 DAR 16:9], 23.98 tbr, 90k tbn, 47.95 tbc
Stream #0.1[0x1100]: Audio: dca, 48000 Hz, 5.1, s16, 1536 kb/s
Stream #0.2[0x1101]: Audio: dca, 48000 Hz, 5.1, s16, 768 kb/s
Stream #0.3[0x1102]: Audio: dca, 48000 Hz, 5.1, s16, 1536 kb/s
Stream #0.4[0x1103]: Audio: ac3, 48000 Hz, stereo, s16, 192 kb/s
Stream #0.5[0x1104]: Audio: ac3, 48000 Hz, stereo, s16, 192 kb/s
Stream #0.6[0x1200]: Subtitle: pgssub
Stream #0.7[0x1201]: Subtitle: pgssub
Stream #0.8[0x1202]: Subtitle: pgssub
Stream #0.9[0x1203]: Subtitle: pgssub
Stream #0.10[0x1204]: Subtitle: pgssub
Stream #0.11[0x1a00]: Audio: dca, 0 channels, s16
Stream #0.12[0x1b00]: Video: h264, yuv420p, 720x480 [PAR 10:11 DAR 15:11], 23.98 tbr, 90k tbn, 47.95 tbc
[ac3 @ 0xc19f00]No channel layout specified. The encoder will guess the layout, but it might be incorrect.
[ac3 @ 0xc19f00]invalid channel layout
Output #0, dvd, to 'C:\Documents and Settings\Хозяин\Local Settings\Application Data\Home Media Server\HMS\Temp\325f2f7634e847811f69ed7060699a9f_1_0.mpg':
Stream #0.0: Video: mpeg2video, yuv420p, 1920x1080 [PAR 1:1 DAR 16:9], q=2-31, 10000 kb/s, 90k tbn, 23.98 tbc
Stream #0.1: Audio: ac3, 48000 Hz, 0 channels, s16, 448 kb/s
Stream mapping:
Stream #0.0 -> #0.0
Stream #0.2 -> #0.1
Error while opening encoder for output stream #0.1 - maybe incorrect parameters such as bit_rate, rate, width or height
FFmpeg version SVN-r20212, Copyright (c) 2000-2009 Fabrice Bellard, et al.
built on Dec 19 2009 00:45:55 with gcc 4.2.4 [Sherpya]
libavutil 50. 3. 0 / 50. 3. 0
libavcodec 52.37. 0 / 52.37. 0
libavformat 52.39. 0 / 52.39. 0
libavdevice 52. 2. 0 / 52. 2. 0
libswscale 0. 7. 1 / 0. 7. 1
libpostproc 51. 2. 0 / 51. 2. 0

В чем может быть проблема?


Вернуться к началу
   
СообщениеДобавлено: Пн янв 18, 2010 11:42 pm 
Здравствуте Евгений,
на компьютере идет нормально, при попытке воспроизведения файла нет звука http://dl.torrents.ru/forum/dl.php?t=2646749


Вернуться к началу
   
СообщениеДобавлено: Вт янв 19, 2010 12:30 am 
Не в сети

Зарегистрирован: Вт сен 16, 2008 7:30 pm
Сообщения: 2744
saschka.net писал(а):
Здравствуте Евгений,
на компьютере идет нормально, при попытке воспроизведения файла нет звука http://dl.torrents.ru/forum/dl.php?t=2646749

Что показывается при тестовом транскодировании ? транскодированный файл пробовали проиграть на компьютере ?


Вернуться к началу
СообщениеДобавлено: Вт янв 19, 2010 12:44 am 
Eugene писал(а):
saschka.net писал(а):
Здравствуте Евгений,
на компьютере идет нормально, при попытке воспроизведения файла нет звука http://dl.torrents.ru/forum/dl.php?t=2646749

Что показывается при тестовом транскодировании ? транскодированный файл пробовали проиграть на компьютере ?


Тестовый .mpg проигрывается на компютере со звуком.


Вернуться к началу
   
СообщениеДобавлено: Вт янв 19, 2010 10:23 am 
Не в сети

Зарегистрирован: Вт сен 16, 2008 7:30 pm
Сообщения: 2744
saschka.net писал(а):
Eugene писал(а):
saschka.net писал(а):
Здравствуте Евгений,
на компьютере идет нормально, при попытке воспроизведения файла нет звука http://dl.torrents.ru/forum/dl.php?t=2646749

Что показывается при тестовом транскодировании ? транскодированный файл пробовали проиграть на компьютере ?


Тестовый .mpg проигрывается на компютере со звуком.

Какой звук в Тестовый .mpg ? Может выключить/включить телевизор, но не с пульта.


Вернуться к началу
Показать сообщения за:  Поле сортировки  
Начать новую тему  Ответить на тему  [ 92 сообщения ]  На страницу Пред. 16 7 8 9 10 След.

Часовой пояс: UTC+03:00


Кто сейчас на конференции

Сейчас этот форум просматривают: нет зарегистрированных пользователей и 19 гостей


Вы не можете начинать темы
Вы не можете отвечать на сообщения
Вы не можете редактировать свои сообщения
Вы не можете удалять свои сообщения
Вы не можете добавлять вложения

Найти:
Перейти:  
Создано на основе phpBB® Forum Software © phpBB Limited
Русская поддержка phpBB