Домашний медиа-сервер (UPnP, DLNA, HTTP) Домашний медиа-сервер (UPnP, DLNA, HTTP) Домашний медиа-сервер (UPnP, DLNA, HTTP)
Главная Решения пользователей программы "Домашний медиа-сервер (UPnP, DLNA, HTTP)"
 
Текущее время: Пн дек 10, 2018 4:02 am

Часовой пояс: UTC+03:00




Начать новую тему  Ответить на тему  [ 92 сообщения ]  На страницу Пред. 16 7 8 9 10
Автор Сообщение
СообщениеДобавлено: Вс апр 25, 2010 7:32 pm 
При попытке экспортировать мою музыкальную коллекцию, программа безнадежно зависает.
Небольшое иследование показало, что программа останавливается на “проблемном” файле и входит в бесконечный цикл. Смотрите скриншот. Особенно не приятно, что программа зависает и при старте на ресканировании ресурсов. Отменить сканирование проблематично, так как UI блокируется.
Вопрос: Где хранится список каталогов медиа ресурсов? Можно ли его проредактировать не загружая программу?
Конечно хотелось бы экспортировать всю музыку, или понять какие файлы “не нравятся” программе. Спасибо.


Вложения:
Комментарий к файлу: Зависание на музыкальном файле
bug.png
bug.png [ 126.45 КБ | 12111 просмотров ]
Вернуться к началу
   
СообщениеДобавлено: Вт авг 30, 2011 4:20 pm 
Начал смотреть сериал Game of Thrones (первое MediaInfo) . Проблема: изображения - нет, звук - есть. Пробывал все профили траснкодирования, чистую установку HMS, так ни что не помогло. Так же сталкнулся с теми же пробелмамами в сериале Eureka (dnjhjt MediaInfo)
Все остальные фильмы, сериала и т.п. воспроизводится.

PC (HMS 1.19) --> Router DIR 300 --> SONY 40ex710
Тип устройства выбран "Телевизор Sony (DLNA, 16:9, 1920х1080)" - все настройки оставлены тежи, поменял только формат на 4:3 (для сохранения пропорций не для фильмов 16:9) и дополнение цветом до размера кадра сделал "160, 0, 0"

Код:
General
Unique ID                        : 207010329379340397421817056332649662816 (0x9BBCBD3D3046CFAC8DF4A9D9E6A50960)
Complete name                    : F:\Download\Game.of.Thrones.s01e04.rus.720p.LostFilm.TV.mkv
Format                           : Matroska
Format version                   : Version 2
File size                        : 2.26 GiB
Duration                         : 57mn 15s
Overall bit rate                 : 5 649 Kbps
Encoded date                     : UTC 2011-05-10 12:11:41
Writing application              : mkvmerge v4.3.0 ('Escape from the Island') сборка от Sep  5 2010 10:30:51
Writing library                  : libebml v1.0.0 + libmatroska v1.0.0

Video
ID                               : 1
Format                           : AVC
Format/Info                      : Advanced Video Codec
Format profile                   : Main@L3.1
Format settings, CABAC           : No
Format settings, ReFrames        : 3 frames
Codec ID                         : V_MPEG4/ISO/AVC
Duration                         : 57mn 15s
Bit rate                         : 4 768 Kbps
Width                            : 1 280 pixels
Height                           : 720 pixels
Display aspect ratio             : 16:9
Frame rate                       : 23.976 fps
Standard                         : NTSC
Color space                      : YUV
Chroma subsampling               : 4:2:0
Bit depth                        : 8 bits
Scan type                        : Progressive
Bits/(Pixel*Frame)               : 0.216
Stream size                      : 1.91 GiB (84%)
Color primaries                  : BT.601-6 525, BT.1358 525, BT.1700 NTSC, SMPTE 170M
Transfer characteristics         : BT.709-5, BT.1361
Matrix coefficients              : BT.601-6 525, BT.1358 525, BT.1700 NTSC, SMPTE 170M

Audio #1
ID                               : 2
Format                           : AC-3
Format/Info                      : Audio Coding 3
Mode extension                   : CM (complete main)
Codec ID                         : A_AC3
Duration                         : 57mn 15s
Bit rate mode                    : Constant
Bit rate                         : 384 Kbps
Channel(s)                       : 2 channels
Channel positions                : Front: L R
Sampling rate                    : 48.0 KHz
Bit depth                        : 16 bits
Compression mode                 : Lossy
Stream size                      : 157 MiB (7%)

Audio #2
ID                               : 3
Format                           : AC-3
Format/Info                      : Audio Coding 3
Mode extension                   : CM (complete main)
Codec ID                         : A_AC3
Duration                         : 57mn 15s
Bit rate mode                    : Constant
Bit rate                         : 384 Kbps
Channel(s)                       : 2 channels
Channel positions                : Front: L R
Sampling rate                    : 48.0 KHz
Bit depth                        : 16 bits
Compression mode                 : Lossy
Stream size                      : 157 MiB (7%)



Код:
General
Unique ID                        : 188045880787995767559894319393143638654 (0x8D7851BBDD2FF51DBB9039746FCDCA7E)
Complete name                    : F:\Download\Eureka.s04e16.rus.720p.LostFilm.TV.mkv
Format                           : Matroska
Format version                   : Version 2
File size                        : 1.76 GiB
Duration                         : 44mn 2s
Overall bit rate                 : 5 716 Kbps
Encoded date                     : UTC 2011-08-23 15:08:52
Writing application              : mkvmerge v4.3.0 ('Escape from the Island') сборка от Sep  5 2010 10:30:51
Writing library                  : libebml v1.0.0 + libmatroska v1.0.0

Video
ID                               : 1
Format                           : AVC
Format/Info                      : Advanced Video Codec
Format profile                   : Main@L3.1
Format settings, CABAC           : No
Format settings, ReFrames        : 3 frames
Codec ID                         : V_MPEG4/ISO/AVC
Duration                         : 44mn 2s
Bit rate                         : 4 834 Kbps
Width                            : 1 280 pixels
Height                           : 720 pixels
Display aspect ratio             : 16:9
Frame rate                       : 23.976 fps
Standard                         : NTSC
Color space                      : YUV
Chroma subsampling               : 4:2:0
Bit depth                        : 8 bits
Scan type                        : Progressive
Bits/(Pixel*Frame)               : 0.219
Stream size                      : 1.49 GiB (85%)
Color primaries                  : BT.601-6 525, BT.1358 525, BT.1700 NTSC, SMPTE 170M
Transfer characteristics         : BT.709-5, BT.1361
Matrix coefficients              : BT.601-6 525, BT.1358 525, BT.1700 NTSC, SMPTE 170M

Audio #1
ID                               : 2
Format                           : AC-3
Format/Info                      : Audio Coding 3
Mode extension                   : CM (complete main)
Codec ID                         : A_AC3
Duration                         : 44mn 2s
Bit rate mode                    : Constant
Bit rate                         : 384 Kbps
Channel(s)                       : 2 channels
Channel positions                : Front: L R
Sampling rate                    : 48.0 KHz
Bit depth                        : 16 bits
Compression mode                 : Lossy
Stream size                      : 121 MiB (7%)

Audio #2
ID                               : 3
Format                           : AC-3
Format/Info                      : Audio Coding 3
Mode extension                   : CM (complete main)
Codec ID                         : A_AC3
Duration                         : 44mn 2s
Bit rate mode                    : Constant
Bit rate                         : 384 Kbps
Channel(s)                       : 2 channels
Channel positions                : Front: L R
Sampling rate                    : 48.0 KHz
Bit depth                        : 16 bits
Compression mode                 : Lossy
Stream size                      : 121 MiB (7%)


P.S.: Не в курсе на сколько актуальна тема, последнне сообщение в 2010 году :(


Вернуться к началу
   
Показать сообщения за:  Поле сортировки  
Начать новую тему  Ответить на тему  [ 92 сообщения ]  На страницу Пред. 16 7 8 9 10

Часовой пояс: UTC+03:00


Кто сейчас на конференции

Сейчас этот форум просматривают: нет зарегистрированных пользователей и 19 гостей


Вы не можете начинать темы
Вы не можете отвечать на сообщения
Вы не можете редактировать свои сообщения
Вы не можете удалять свои сообщения
Вы не можете добавлять вложения

Найти:
Перейти:  
Создано на основе phpBB® Forum Software © phpBB Limited
Русская поддержка phpBB